Nowości/zmiany [kanały HD/4K] -19.2°E - Astra 1F/1H/1KR/1L/1M

Ku-band
ODPOWIEDZ
Awatar użytkownika
Feedsat
Bywalec
Bywalec
Posty: 190
Rejestracja: 26 cze 2014, 12:15
Podziękował: 92 razy
Dostał Podziękowań: 65 razy

Nowości i zmiany [kanały HD] -19.2°E - Astra 1F/1H/1KR/1L/1M

#41

Post autor: Feedsat » 18 lis 2014, 20:46

"Linknin Park" live tomorrow (From O2 in Berlin) in UHD @19.2°E 10995 H SID2, test have started (50fp/s)
Załączniki
linkin1.jpg
linkin2.JPG


- Winegard Micromesh 3.10m C extended
- CM PFA 3.10m C
- SMW 1.40m KU
- Laminas 1.80m C/KU/KA
- Channel Master 1.80m KU/KA
- TBS 5925 & 6983
- Dektec DTA2137C
- Promax TV II+ - ASC1 - RC2000C -Egis ...
- 76.5°E <> 63°W

Awatar użytkownika
Feedsat
Bywalec
Bywalec
Posty: 190
Rejestracja: 26 cze 2014, 12:15
Podziękował: 92 razy
Dostał Podziękowań: 65 razy

Nowości i zmiany [kanały HD] -19.2°E - Astra 1F/1H/1KR/1L/1M

#42

Post autor: Feedsat » 19 lis 2014, 20:07

Soon...
Załączniki
Linkin3.jpg


- Winegard Micromesh 3.10m C extended
- CM PFA 3.10m C
- SMW 1.40m KU
- Laminas 1.80m C/KU/KA
- Channel Master 1.80m KU/KA
- TBS 5925 & 6983
- Dektec DTA2137C
- Promax TV II+ - ASC1 - RC2000C -Egis ...
- 76.5°E <> 63°W

Awatar użytkownika
Tomek22
DX-er
DX-er
Posty: 2932
Rejestracja: 05 cze 2010, 12:25
Tuner: Showbox Vitamin 5000HD+Prof 7301 S2
Antena: Mabo 1.80m. Corab 60cm
Konwerter: Inverto Black Ultra z Mifferem 58mm. TM-1 (biały)
Lokalizacja: Łódź Centrum N51°49 E19°26
Podziękował: 911 razy
Dostał Podziękowań: 264 razy

Nowości i zmiany [kanały HD] -19.2°E - Astra 1F/1H/1KR/1L/1M

#43

Post autor: Tomek22 » 19 lis 2014, 21:27

Dla ciekawych wklejam bitrate i screen :)
Video
ID : 210 (0xD2)
Format : HEVC
Format/Info : High Efficiency Video Coding
Format profile : Main@L5.1
Duration : 5mn 45s
Bit rate : 29.4 Mbps
Width : 3 840 pixels
Height : 2 160 pixels
Display aspect ratio : 16:9
Frame rate : 50.000 fps
Color space : YUV
Chroma subsampling : 4:2:0
Bit depth : 8 bits
Bits/(Pixel*Frame) : 0.071
Stream size : 1.18 GiB (94%)

Audio
ID : 220 (0xDC)
Format : MPEG Audio
Format version : Version 1
Format profile : Layer 2
Duration : 5mn 45s
Bit rate mode : Constant
Bit rate : 192 Kbps
Channel(s) : 2 channels
Sampling rate : 48.0 KHz
Compression mode : Lossy
Delay relative to video : -1s 401ms
Stream size : 7.92 MiB (1%)
Załączniki
Bez tytułu.png


Showbox Vitamin 5000HD
Prof 7301 S2

Zestaw Odbiorczy:
Mabo 1.80m 93.5*E-40.5*W(bez 76.5*E i 78*E) Ku: Inverto Black Ultra (przerobiony) C: Kaonsat KS-N201G
WiMAX interference (od 3530MHz do 3790MHz duże zakłócenia)
Invacom SNF-031, TM-1 (biały), Siłownik 24', Deklinacja 12'

Awatar użytkownika
mortodontus
DX-er
DX-er
Posty: 1945
Rejestracja: 25 lut 2009, 21:08
Antena: Triax 110 TD
Podziękował: 16 razy
Dostał Podziękowań: 48 razy

Nowości i zmiany [kanały HD] -19.2°E - Astra 1F/1H/1KR/1L/1M

#44

Post autor: mortodontus » 29 sty 2015, 22:33

Na 11068 V 22000 rozpoczął nadawanie FTA kanał TV RECORD HD.
Załączniki
TV RECORD HD.jpg



Awatar użytkownika
mortodontus
DX-er
DX-er
Posty: 1945
Rejestracja: 25 lut 2009, 21:08
Antena: Triax 110 TD
Podziękował: 16 razy
Dostał Podziękowań: 48 razy

Nowości i zmiany [kanały HD] -19.2°E - Astra 1F/1H/1KR/1L/1M

#45

Post autor: mortodontus » 01 kwie 2015, 12:37

Na 11229 V 22000 rozpoczął nadawanie FTA kanał BBC World News Europe HD.
Załączniki
BBC World News Europe HD.jpg
BBC World News Europe HD (2).jpg



Awatar użytkownika
mortodontus
DX-er
DX-er
Posty: 1945
Rejestracja: 25 lut 2009, 21:08
Antena: Triax 110 TD
Podziękował: 16 razy
Dostał Podziękowań: 48 razy

Nowości i zmiany [kanały HD] -19.2°E - Astra 1F/1H/1KR/1L/1M

#46

Post autor: mortodontus » 27 cze 2015, 19:51

Na 12129 V 29700 rozpoczął nadawanie FTA kanał TV5 Monde HD (ident. Nameless 12129).
Załączniki
TV5 Monde.jpg



Awatar użytkownika
mortodontus
DX-er
DX-er
Posty: 1945
Rejestracja: 25 lut 2009, 21:08
Antena: Triax 110 TD
Podziękował: 16 razy
Dostał Podziękowań: 48 razy

Nowości i zmiany [kanały HD] -19.2°E - Astra 1F/1H/1KR/1L/1M

#47

Post autor: mortodontus » 01 lip 2015, 0:44

Na 12012 V 29700 rozpoczął nadawanie FTA kanał iTele HD.
Załączniki
iTele.jpg



Awatar użytkownika
bronex
DX-er
DX-er
Posty: 359
Rejestracja: 24 sty 2010, 11:50
Tuner: Spark
Podziękował: 26 razy
Dostał Podziękowań: 11 razy

Nowości i zmiany [kanały HD] -19.2°E - Astra 1F/1H/1KR/1L/1M

#48

Post autor: bronex » 01 lip 2015, 16:14

Dzisiaj tp 11568 V 22000 został przełączony w DVB-S2 i wszystkie kanały w HD, między innymi NRJ HITS HD, oczywiście wszystkie kodowane


GM990Obrazek ★★星火最好的!★★
SW: 1.2.85 ★Mod★Obrazek
DX: 53,0°E → 30,0°W
E2 → Nie dla GM990!
ObrazekObrazek

Awatar użytkownika
mortodontus
DX-er
DX-er
Posty: 1945
Rejestracja: 25 lut 2009, 21:08
Antena: Triax 110 TD
Podziękował: 16 razy
Dostał Podziękowań: 48 razy

Nowości i zmiany [kanały HD] -19.2°E - Astra 1F/1H/1KR/1L/1M

#49

Post autor: mortodontus » 19 lip 2015, 16:25

Na 11273 H 22000 rozpoczął nadawanie FTA kanał R9 Oesterreich HD.
Załączniki
R9 Oesterreich HD.jpg
Za ten post użytkownik mortodontus otrzymał podziękowanie od:
0kti (19 lip 2015, 18:24)



Awatar użytkownika
mortodontus
DX-er
DX-er
Posty: 1945
Rejestracja: 25 lut 2009, 21:08
Antena: Triax 110 TD
Podziękował: 16 razy
Dostał Podziękowań: 48 razy

Nowości i zmiany [kanały HD] -19.2°E - Astra 1F/1H/1KR/1L/1M

#50

Post autor: mortodontus » 01 wrz 2015, 17:01

Na 11112 H 22000 rozpoczął nadawanie FTA kanał Fashion 4K i Fashion 4K Preview.
Załączniki
Fashion 4K.jpg
Fashion 4K Preview.jpg



ODPOWIEDZ

Wróć do „19.2°E - Astra 1KR/1L/1M/2C”

Kto jest online

Użytkownicy przeglądający to forum: Obecnie na forum nie ma żadnego zarejestrowanego użytkownika i 0 gości